XviD4PSP - Страница 5

XviD4PSP

Показано с 41 по 45 из 45

  1. #1

    XviD4PSP

    XviD4PSP



    XviD4PSP - лучший по функциональности видео-конвертер! XviD4PSP ранее был специализированной программой для конвертирования видео для iPOD, iPhone и Sony PSP однако программа оказалась столь хороша, что автор программы, наш соотечественник, сделал из неё лучший в классе русскоязычный видеоконвертор (в бета-версии русский не поддерживается), поддерживающий на входе любые видеофайлы, а на выходе: AVI (XviD), 3GP (для сотовых), AVI DV (для высочайшего качества), MKV (для хранения файлов с субтитрами), MP4 (Для iPhone, iPod и Sony PSP) XviD4PSP - удобный и качественный мультиформатный конвертер на основе AviSynth. Конвертирует файлы для PSP, PS3, XBOX 360, iPod, iPod Touch, iPhone, Apple TV, PC, Hardware DVD.

    **Скрытый текст: Для просмотра скрытого содержимого, Вам нужно более 1 сообщений.**


    Последний раз редактировалось neron8; 11.02.2016 в 20:53.
  2. #41
    HandBrake не хуже XviD4PSP.
    Качество на выходе - вполне.
    а кадры для сравнения можешь положить?


  3. #42
  4. #43
    Вариант первый. (Программа кодирования HandBrake).

    Здесь сэмпл ремукса:
    **Скрытый текст: Для просмотра скрытого содержимого, Вам нужно более 0 сообщений.**


    Вот его, сэмпла, медиаинфо:

    ормат : HEVC
    Формат/Информация : High Efficiency Video Coding
    Профиль формата : Main 10@L5.1@High
    Идентификатор кодека : V_MPEGH/ISO/HEVC
    Продолжительность : 59 с. 852 мс.
    Битрейт : 90,1 Мбит/сек
    Ширина : 3840 пикселей
    Высота : 2160 пикселей
    Соотношение сторон : 16:9
    Режим частоты кадров : Постоянный
    Частота кадров : 23,976 (24000/1001) кадра/сек
    Цветовое пространство : YUV
    Субдискретизация насыщенности : 4:2:0 (Type 2)
    Битовая глубина : 10 бит
    Бит/(Пиксели*Кадры) : 0.453
    Размер потока : 643 Мбайт (82%)
    Библиотека кодирования : ATEME Titan File 3.7.9 (4.7.9.0)
    Default : Да
    Forced : Нет
    Цветовой диапазон : Limited
    Основные цвета : BT.2020
    Характеристики трансфера : SMPTE ST 2084
    Коэффициенты матрицы : BT.2020 non-constant
    MasteringDisplay_ColorPrimaries : R: x=0.680000 y=0.320000, G: x=0.265000 y=0.690000, B: x=0.150000 y=0.060000, White point: x=0.312700 y=0.329000
    MasteringDisplay_Luminance : min: 0.0000 cd/m2, max: 1000.0000 cd/m2
    MaxCLL : 1000 cd/m2
    MaxFALL : 510 cd/m2


    А здесь сэмпл сэмпла), я не стал делать весь, только 15 секунд:
    **Скрытый текст: Для просмотра скрытого содержимого, Вам нужно более 0 сообщений.**

    Вот его медиаданные:

    Видео
    Идентификатор : 1
    Формат : AVC
    Формат/Информация : Advanced Video Codec
    Профиль формата : High@L5.1
    Параметр CABAC формата : Да
    Параметр ReFrames формата : 4 кадра
    Идентификатор кодека : V_MPEG4/ISO/AVC
    Продолжительность : 15 с. 516 мс.
    Битрейт : 90,0 Мбит/сек
    Ширина : 3840 пикселей
    Высота : 2160 пикселей
    Соотношение сторон : 2,40:1
    Режим частоты кадров : Постоянный
    Частота кадров : 23,976 (24000/1001) кадра/сек
    Цветовое пространство : YUV
    Субдискретизация насыщенности : 4:2:0
    Битовая глубина : 8 бит
    Тип развёртки : Прогрессивная
    Бит/(Пиксели*Кадры) : 0.453
    Размер потока : 172 Мбайт (98%)
    Библиотека кодирования : x264 core 148 r2708 86b7198
    Настройки программы : cabac=1 / ref=2 / deblock=1:0:0 / analyse=0x3:0x113 / me=hex / subme=6 / psy=1 / psy_rd=1.00:0.00 / mixed_ref=1 / me_range=16 / chroma_me=1 / trellis=1 / 8x8dct=1 / cqm=0 / deadzone=21,11 / fast_pskip=1 / chroma_qp_offset=-2 / threads=12 / lookahead_threads=2 / sliced_threads=0 / nr=0 / decimate=1 / interlaced=0 / bluray_compat=0 / constrained_intra=0 / bframes=3 / b_pyramid=2 / b_adapt=1 / b_bias=0 / direct=1 / weightb=1 / open_gop=0 / weightp=1 / keyint=240 / keyint_min=24 / scenecut=40 / intra_refresh=0 / rc_lookahead=30 / rc=abr / mbtree=1 / bitrate=90000 / ratetol=1.0 / qcomp=0.60 / qpmin=0 / qpmax=69 / qpstep=4 / ip_ratio=1.40 / aq=1:1.00
    Default : Да
    Forced : Нет
    Цветовой диапазон : Limited
    Основные цвета : BT.2020
    Характеристики трансфера : SMPTE ST 2084
    Коэффициенты матрицы : BT.2020 non-constant
    Statistics Tags Issue : mkvmerge v7.3.0 ('Nouages') 64bit built on Oct 22 2014 18:53:34 2018-01-05 12:11:52 / mkvmerge v6.0.0 ('Coming Up For Air') built on Jan 20 2013 09:52:00 2018-01-05 12:30:48
    FromStats_BitRate : 91159719
    FromStats_Duration : 00:00:59.852000000
    FromStats_FrameCount : 1435
    FromStats_StreamSize : 682011440



    Поменял только 265 на 264.
    Разницу, лично я, не увидел. (Сони 1080р 42").
    Да и на х265 хард слегка подтормаживал, а при варианте х264 - никаких тормозов, только в путь.)

    Вот скрины настройки для HandBrake.
    **Скрытый текст: Для просмотра скрытого содержимого, Вам нужно более 0 сообщений.**


    Через несколько минут, докину вариант кодирования прогой XviD4PSP.


    Последний раз редактировалось ASEVI; 05.01.2018 в 18:35.
  5. #44
    XviD4PSP тоже норм тащит, но!
    Файл x265.mkv сэмпла, который после "переколбаса" превращался в х264.mkv, неадекватно работал.
    Жутко тормозил.
    Пришлось мухером его "хернуть налысо" до состояния хевки.)
    И только после этого, прога выдала адекватный результ.
    В то время, как HandBrake, спокойно сделала из x265.mkv x264.mkv , без всяких промежуточных дел.
    Хотя по качеству выдаваемого итога, проги идентичны, почти.)
    Уже грузится на диск.
    Скоро залью ссылочку.


  6. #45
    Вот тут кусочек сделанный в программе XviD4PSP:
    **Скрытый текст: Для просмотра скрытого содержимого, Вам нужно более 0 сообщений.**


    Видео
    Идентификатор : 1
    Формат : AVC
    Формат/Информация : Advanced Video Codec
    Профиль формата : High@L5.1
    Параметр CABAC формата : Да
    Параметр ReFrames формата : 4 кадра
    Идентификатор кодека : V_MPEG4/ISO/AVC
    Продолжительность : 18 с. 894 мс.
    Битрейт : 90,0 Мбит/сек
    Ширина : 3840 пикселей
    Высота : 2160 пикселей
    Соотношение сторон : 16:9
    Режим частоты кадров : Постоянный
    Частота кадров : 23,976 (24000/1001) кадра/сек
    Цветовое пространство : YUV
    Субдискретизация насыщенности : 4:2:0
    Битовая глубина : 8 бит
    Тип развёртки : Прогрессивная
    Бит/(Пиксели*Кадры) : 0.453
    Размер потока : 629 Мбайт (98%)
    Библиотека кодирования : x264 core 155 r2893M b00bcaf
    Настройки программы : cabac=1 / ref=3 / deblock=1:-3:-3 / analyse=0x3:0x113 / me=hex / subme=7 / psy=1 / psy_rd=1.00:0.00 / mixed_ref=1 / me_range=16 / chroma_me=1 / trellis=1 / 8x8dct=1 / cqm=0 / deadzone=21,11 / fast_pskip=1 / chroma_qp_offset=-2 / threads=9 / lookahead_threads=1 / sliced_threads=0 / nr=0 / decimate=1 / interlaced=0 / bluray_compat=0 / constrained_intra=0 / bframes=3 / b_pyramid=2 / b_adapt=1 / b_bias=0 / direct=1 / weightb=1 / open_gop=0 / weightp=2 / keyint=240 / keyint_min=24 / scenecut=40 / intra_refresh=0 / rc_lookahead=40 / rc=2pass / mbtree=1 / bitrate=90000 / ratetol=1.0 / qcomp=0.60 / qpmin=0 / qpmax=69 / qpstep=4 / cplxblur=20.0 / qblur=0.5 / ip_ratio=1.40 / aq=1:1.00
    Default : Да
    Forced : Нет
    Цветовой диапазон : Limited
    Основные цвета : BT.2020
    Характеристики трансфера : SMPTE ST 2084
    Коэффициенты матрицы : BT.2020 non-constant



    Последний раз редактировалось ASEVI; 05.01.2018 в 22:13. Причина: ссылки скрывать!

Информация о теме

Пользователи, просматривающие эту тему

Эту тему просматривают: 1 (пользователей: 0 , гостей: 1)